Advanced Search
Have a nice Wednesday!





"Natkhat (2018) 720p WEB-HD Hindi DuBBed x264 1GB.mp4"


Previous Torrent
FC2 PPV 1151475 【個人】実家に帰るといって旅館に呼び出された巨乳人妻、久々の行為に快楽を貪る。.mp4
Next Torrent
[18+] The End of the Fucking World Season 1 Dual Audio [Hindi-DD5.1] 720p HDRip ESubs

  
Complete Name :Natkhat (2018) 720p WEB-HD Hindi DuBBed x264 1GB.mp4
Download torrent:  Natkhat (2018) 720p WEB-HD Hindi DuBBed x264 1GB.mp4.torrent
Ratings: (Please Log in to rate it)
Info Hash:13cc050f5dbaf7deb2b86fa9813451c5fc56ccfe
Category:Movie  > HD
Torrent language:Hindi  
Seeds | Leech:2  |  0
Complete: 3
Health:
Total Size:1.01 GB
Downloaded:77 Times
Added By:       220x ... View All Uploads Of This User
Torrent status: Torrent Is Verified (Verified By 220x )
Date Added:06-09-2019 02:59:pm | Last Edit:  30-10-2019 03:18:am
Main Technical Comments
Screenshot 01
Screenshot 02
Screenshot 03
Screenshot 04
Screenshot 05
Screenshot 06




General
Complete name : Natkhat (2018) 720p WEB-HD Hindi DuBBed x264 1GB.mp4
Format : MPEG-4
Format profile : Base Media / Version 2
Codec ID : mp42
File size : 1.01 GiB
Duration : 2h 17mn
Overall bit rate mode : Variable
Overall bit rate : 1 055 Kbps
Encoded date : UTC 2018-10-26 17:43:04
Tagged date : UTC 2018-10-26 17:43:04
gsst : 0
gstd : 8248308

Video
ID : 1
Format : AVC
Format/Info : Advanced Video Codec
Format profile : [email protected]
Format settings, CABAC : Yes
Format settings, ReFrames : 3 frames
Codec ID : avc1
Codec ID/Info : Advanced Video Coding
Duration : 2h 17mn
Bit rate : 926 Kbps
Width : 1 280 pixels
Height : 720 pixels
Display aspect ratio : 16:9
Frame rate mode : Constant
Frame rate : 25.000 fps
Color space : YUV
Chroma subsampling : 4:2:0
Bit depth : 8 bits
Scan type : Progressive
Bits/(Pixel*Frame) : 0.040
Stream size : 911 MiB (88%)
Title : ISO Media file produced by Google Inc. Created on: 10/26/2018.
Encoded date : UTC 2018-10-26 17:43:04
Tagged date : UTC 2018-10-26 17:43:04
Color range : Limited
Color primaries : BT.709
Transfer characteristics : BT.709
Matrix coefficients : BT.709

Audio
ID : 2
Format : AAC
Format/Info : Advanced Audio Codec
Format profile : LC
Codec ID : 40
Duration : 2h 17mn
Bit rate mode : Variable
Bit rate : 126 Kbps
Channel(s) : 2 channels
Channel positions : Front: L R
Sampling rate : 44.1 KHz
Compression mode : Lossy
Stream size : 123 MiB (12%)
Title : ISO Media file produced by Google Inc. Created on: 10/26/2018.
Encoded date : UTC 2018-10-26 17:43:04
Tagged date : UTC 2018-10-26 17:43:04

........................................................................



Trackers:
udp://tracker.leechers-paradise.org:6969/announce

Natkhat (2018) 720p WEB-HD Hindi DuBBed x264 1GB.mp4 
Comments:
No comments still posted
Home   Latest Torrent   Today's Torrents   Upload A Torrent   Top 100   F.A.Q   Site Rules   Contact Us   220xd.site is in compliance with Copyrights   Page Generated In 0.007689 secs.   2018-2019 www.220xd.site